Ирландец / The Irishman (Мартин Скорсезе / Martin Scorsese) [2019, США, драма, криминал, биография, WEB-DLRip] Dub (Пифагор)

Ответить на тему
Статистика раздачи
Размер:  1,46 GB   |    Зарегистрирован:  2 месяца 26 дня   |    Скачан:  0 раза
DL-List: Нет

Полного источника не было: Никогда

 
     
 
 
 
Автор Сообщение

Magnat ®

Пол: Мужской

Стаж: 3 месяца 1 день

Сообщений: 189

Откуда: Москва

Создавать темы 30-Ноя-2019 11:47

[Цитировать]

Ирландец / The Irishman- Год выхода: 2019
Выпущено: США
Жанр: драма, криминал, биография
Продолжительность: 03:29:26
Перевод: Профессиональный (полное дублирование) Студия «Пифагор» |по заказу Netflix|
Субтитры: Русские (форсированные) (внешние .srt*)-Режиссер:
Мартин Скорсезе / Martin Scorsese-В ролях:
Роберт Де Ниро, Аль Пачино, Джо Пеши, Рэй Романо, Бобби Каннавале, Анна Пэкуин, Стивен Грэм, Харви Кейтель, Стефани Курцуба, Кэтрин Нардуччи, Уэлкер Уайт, Джесси Племонс, Алекса Палладино, Джек Хьюстон, Доменик Ломбардоззи, Пол Бен-Виктор-О фильме:
История о Фрэнке Ширэне по прозвищу Ирландец, которому приписывают убийство 25 гангстеров, включая самого Джимми Хоффу.
Качество: WEB-DLRip
Формат: AVI
Видео: 656x352 (1.86:1), 24.000 fps, XviD build 73 ~861 kbps avg, 0.16 bit/pixel
Аудио: 48 kHz, MPEG Layer 3, 2 ch, ~128.00 kbps avg
-

Скриншоты

-

MediaInfo

Общее
Полное имя                               : F:\Irlandec_2019_WEB-DLRip_by_Dalemake.avi
Формат                                   : AVI
Формат/Информация                        : Audio Video Interleave
Размер файла                             : 1,46 Гбайт
Продолжительность                        : 3 ч. 29 м.
Общий поток                              : 999 Кбит/сек
Программа кодирования                    : VirtualDubMod 1.5.10.3 | www.virtualdub-fr.org || (build 2550/release)
Библиотека кодирования                   : VirtualDubMod build 2550/release
Видео
Идентификатор                            : 0
Формат                                   : MPEG-4 Visual
Профиль формата                          : Advanced Simple@L5
Настройки формата                        : BVOP1 / Custom Matrix
Параметр BVOP формата                    : 1
Параметр QPel формата                    : Нет
Параметр GMC формата                     : Без точки перехода
Параметр матрицы формата                 : Выборочная
Идентификатор кодека                     : XVID
Идентификатор кодека/Подсказка           : XviD
Продолжительность                        : 3 ч. 29 м.
Битрейт                                  : 861 Кбит/сек
Ширина                                   : 656 пикселей
Высота                                   : 352 пикселя
Соотношение сторон                       : 1,85:1
Частота кадров                           : 24,000 кадра/сек
Цветовое пространство                    : YUV
Субдискретизация насыщенности            : 4:2:0
Битовая глубина                          : 8 бит
Тип развёртки                            : Прогрессивная
Метод сжатия                             : С потерями
Бит/(Пиксели*Кадры)                      : 0.155
Размер потока                            : 1,26 Гбайт (86%)
Библиотека кодирования                   : XviD 73
Аудио
Идентификатор                            : 1
Формат                                   : MPEG Audio
Версия формата                           : Version 1
Профиль формата                          : Layer 3
Идентификатор кодека                     : 55
Идентификатор кодека/Подсказка           : MP3
Продолжительность                        : 3 ч. 29 м.
Вид битрейта                             : Постоянный
Битрейт                                  : 128 Кбит/сек
Каналы                                   : 2 канала
Частота                                  : 48,0 КГц
Частота кадров                           : 41,667 кадра/сек (1152 SPF)
Метод сжатия                             : С потерями
Размер потока                            : 192 Мбайт (13%)
Выравнивание                             : Соединение по промежуткам
Продолжительность промежутка             : 42  мс. (1,00 видеокадр)
Время предзагрузки промежутка            : 504  мс.
Библиотека кодирования                   : LAME3.99r
Настройки программы                      : -m s -V 4 -q 2 -lowpass 17 -b 128
-

Если ваш рейтинг упадет ниже 0,3, вы не сможете скачивать торренты! Подробнее о рейтинге.

[www.kaleydoskop-info.ru].t212.torrent 
Торрент: Зарегистрирован [ 2019-11-30 11:47 ] · F401E2F57EDB612A15E98C22A20ECA51721F5645

Скачать .torrent

Скачать

15 KB

Статус: проверено
Скачан: 0 раз
Размер: 1,46 GB
terms.php
[Профиль] [ЛС]
Показать сообщения:    
Ответить на тему

Текущее время: 27-Фев 09:41

Часовой пояс: UTC + 3



Вы не можете начинать темы
Вы не можете отвечать на сообщения
Вы не можете редактировать свои сообщения
Вы не можете удалять свои сообщения
Вы не можете голосовать в опросах
Вы не можете прикреплять файлы к сообщениям
Вы можете скачивать файлы