Дора и Затерянный город / Dora and the Lost City of Gold (Джеймс Бобин / James Bobin) [2019, США, Мексика, Австралия, приключения, семейный, BDRip-AVC] Dub (iTunes)

Ответить на тему
Статистика раздачи
Размер:  746 MB   |    Зарегистрирован:  7 месяца 13 дня   |    Скачан:  0 раза
DL-List: Нет

Полного источника не было: Никогда

 
     
 
 
 
Автор Сообщение

Magnat ®

Пол: Мужской

Стаж: 7 месяца 17 дня

Сообщений: 189

Откуда: Москва

Создавать темы 30-Ноя-2019 11:46

[Цитировать]

-Дора и Затерянный город / Dora and the Lost City of Gold-«Explorer is Her Middle Name»- -Страна: США, Мексика, Австралия
Жанр: приключения, семейный
Год выпуска: 2019
Продолжительность: 01:42:27-Перевод: Профессиональный (дублированный) iTunes
Субтитры: русские (форсированные)
Оригинальная аудиодорожка: нет-Режиссер: Джеймс Бобин / James Bobin-В ролях: Изабела Монер, Эухенио Дербес, Майкл Пенья, Ева Лонгория, Джеффри Уолберг, Николас Кумбе, Мадлен Мэдден, Темуэра Моррисон, Бенисио Дель Торо, Дэнни Трехо, Мэдлин Миранда-Описание: Практически все детство Дора провела в джунглях, где работали ее родители-исследователи. Но никакие прежние приключения не могли подготовить девушку к опасностям старшей школы — непониманию, соперничеству, зависти. Вдобавок таинственным образом исчезают родители Доры. Но она не была бы собой, если бы опустила руки. Первая любовь, а также старые и новые друзья вдохновляют смелую девушку отправиться на поиски родных. На пути к цели их ждет масса испытаний, а также леденящая кровь загадка потерянной цивилизации…- - -Качество видео: BDRip-AVC / Dora.and.the.Lost.City.of.Gold.2019.D.BDREMUX.1080p.seleZen
Формат видео: MKV-Видео: MPEG-4 AVC, 750x422 (2.40:1), 23.976 fps, ~824 kbps avg, 0.109 bit/pixel
Аудио: 48 kHz, AC3 Dolby Digital, 2/0 (L,R) ch, ~192 kbps avg-

MediaInfo


Complete name               : D:\Раздача\Дора и Затерянный город (2019) BDRip-AVC_ivanes.mkv
Format                      : Matroska
Format version              : Version 2
File size                   : 746 MiB
Duration                    : 1 h 42 min
Overall bit rate            : 1 018 kb/s
Movie name                  : Дора и Затерянный город (2019) BDRip-AVC_ivanes
Encoded date                : UTC 2019-11-29 13:56:07
Writing application         : mkvmerge v4.4.0 ('Die Wiederkehr') сборка от Jan  3 2011 21:40:45
Writing library             : libebml v1.0.0 + libmatroska v1.0.0
Cover                       : Yes
Attachments                 : cover.jpg
Video
ID                          : 1
Format                      : AVC
Format/Info                 : Advanced Video Codec
Format profile              : High@L4.1
Format settings             : CABAC / 12 Ref Frames
Format settings, CABAC      : Yes
Format settings, Reference  : 12 frames
Codec ID                    : V_MPEG4/ISO/AVC
Duration                    : 1 h 42 min
Bit rate                    : 824 kb/s
Width                       : 750 pixels
Height                      : 422 pixels
Display aspect ratio        : 16:9
Original display aspect rat : 16:9
Frame rate mode             : Constant
Frame rate                  : 23.976 (24000/1001) FPS
Color space                 : YUV
Chroma subsampling          : 4:2:0
Bit depth                   : 8 bits
Scan type                   : Progressive
Bits/(Pixel*Frame)          : 0.109
Stream size                 : 590 MiB (79%)
Title                       : Rip by ivanes
Writing library             : x264 core 158 r2984+49 6932f4a t_mod_New [0-bit@all X86]
Encoding settings           : cabac=1 / ref=12 / deblock=1:-3:-3 / analyse=0x3:0x113 / me=umh / subme=10 / psy=1 / fade_compensate=0.00 / psy_rd=1.00:0.00 / mixed_ref=1 / me_range=32 / chroma_me=1 / trellis=2 / 8x8dct=1 / cqm=0 / deadzone=21,11 / fast_pskip=0 / chroma_qp_offset=-2 / threads=12 / lookahead_threads=3 / sliced_threads=0 / nr=0 / decimate=1 / interlaced=0 / bluray_compat=0 / constrained_intra=0 / fgo=0 / bframes=13 / b_pyramid=2 / b_adapt=2 / b_bias=0 / direct=1 / weightb=1 / open_gop=0 / weightp=2 / keyint=240 / keyint_min=23 / scenecut=40 / intra_refresh=0 / rc_lookahead=60 / rc=2pass / mbtree=0 / bitrate=824 / ratetol=1.0 / qcomp=0.60 / qpmin=0:0:0 / qpmax=69:69:69 / qpstep=4 / cplxblur=20.0 / qblur=0.5 / vbv_maxrate=50000 / vbv_bufsize=62500 / nal_hrd=none / filler=0 / ip_ratio=1.40 / pb_ratio=1.30 / aq=1:1.00 / aq-sensitivity=10.00 / aq-factor=1.00:1.00:1.00 / aq2=0 / aq3=0
Default                     : Yes
Forced                      : No
Statistics Tags Issue       : mkvmerge v29.0.0 ('Like It Or Not') 64-bit 2019-11-29 13:55:43 / mkvmerge v4.4.0 ('Die Wiederkehr') сборка от Jan  3 2011 21:40:45 2019-11-29 13:56:07
FromStats_BitRate           : 823809
FromStats_Duration          : 01:42:27.141000000
FromStats_FrameCount        : 147384
FromStats_StreamSize        : 633009162
Audio
ID                          : 2
Format                      : AC-3
Format/Info                 : Audio Coding 3
Commercial name             : Dolby Digital
Codec ID                    : A_AC3
Duration                    : 1 h 42 min
Bit rate mode               : Constant
Bit rate                    : 192 kb/s
Channel(s)                  : 2 channels
Channel layout              : L R
Sampling rate               : 48.0 kHz
Frame rate                  : 31.250 FPS (1536 SPF)
Compression mode            : Lossy
Stream size                 : 141 MiB (19%)
Title                       : iTunes
Language                    : Russian
Service kind                : Complete Main
Default                     : Yes
Forced                      : No
Text
ID                          : 3
Format                      : UTF-8
Codec ID                    : S_TEXT/UTF8
Codec ID/Info               : UTF-8 Plain Text
Title                       : Forced
Language                    : Russian
Default                     : Yes
Forced                      : No

Скриншоты

Если ваш рейтинг упадет ниже 0,3, вы не сможете скачивать торренты! Подробнее о рейтинге.

[www.kaleydoskop-info.ru].t211.torrent 
Торрент: Зарегистрирован [ 2019-11-30 11:46 ] · 9936D77051E228F73DCD1611CFB900DDE73E9B9E

Скачать .torrent

Скачать

15 KB

Статус: проверено
Скачан: 0 раз
Размер: 746 MB
terms.php
[Профиль] [ЛС]
Показать сообщения:    
Ответить на тему

Текущее время: 13-Июл 18:42

Часовой пояс: UTC + 3



Вы не можете начинать темы
Вы не можете отвечать на сообщения
Вы не можете редактировать свои сообщения
Вы не можете удалять свои сообщения
Вы не можете голосовать в опросах
Вы не можете прикреплять файлы к сообщениям
Вы можете скачивать файлы