Руководство по сексу на втором свидании / A Guide to Second Date Sex (Рейчел Хиронс / Rachel Hirons) [2019, Великобритания, мелодрама, комедия, WEB-DLRip-AVC] [Локализованная версия] Dub (iTunes)

Ответить на тему
Статистика раздачи
Размер:  746 MB   |    Зарегистрирован:  1 год   |    Скачан:  0 раза
DL-List: Нет

Полного источника не было: Никогда

 
     
 
 
 
Автор Сообщение

Magnat ®

Пол: Мужской

Стаж: 1 год

Сообщений: 189

Откуда: Москва

Создавать темы 30-Ноя-2019 11:37

[Цитировать]

-Руководство по сексу на втором свидании / A Guide to Second Date Sex-- -Страна: Великобритания
Жанр: мелодрама, комедия
Год выпуска: 2019
Продолжительность: 01:17:46-Перевод: Профессиональный (дублированный) iTunes
Субтитры: нет
Оригинальная аудиодорожка: нет-Режиссер: Рейчел Хиронс / Rachel Hirons-В ролях: Джордж Маккэй, Александра Роуч, Майкл Сока, Эмма Ригби, Каэ Александр, Том Белл, Холли Демпси, Наоми Уиллоу, Том Палмер, Жаклин Рамнарин-Описание: У Лоры и Райана много общего: всю жизнь они были неудачниками в любви, а еще они оба обожают Мэрил Стрип. Сегодня у них второе свидание, и на этот раз они постараются сделать все правильно: душ, парфюм, прикид, контрацептивы… Но где гарантия, что романтический вечер пройдет идеально и завершится в горячей постели?- - -Качество видео: WEB-DLRip-AVC / WEB-DL 1080p
Формат видео: MKV-Видео: MPEG-4 AVC, 784x328 (2.40:1), 25.000fps, ~1148 kbps avg, 0.179 bit/pixel
Аудио: 48 kHz, AC3 Dolby Digital, 2/0 (L,R) ch, ~192 kbps avg-

MediaInfo


Complete name               : D:\Раздача\Руководство по сексу на втором свидании (2019) WEB-DLRip-AVC_ivanes.mkv
Format                      : Matroska
Format version              : Version 2
File size                   : 746 MiB
Duration                    : 1 h 17 min
Overall bit rate            : 1 341 kb/s
Movie name                  : Руководство по сексу на втором свидании (2019) WEB-DLRip-AVC_ivanes
Encoded date                : UTC 2019-11-29 20:39:14
Writing application         : mkvmerge v4.4.0 ('Die Wiederkehr') сборка от Jan  3 2011 21:40:45
Writing library             : libebml v1.0.0 + libmatroska v1.0.0
Cover                       : Yes
Attachments                 : cover.jpg
Video
ID                          : 1
Format                      : AVC
Format/Info                 : Advanced Video Codec
Format profile              : High@L4.1
Format settings             : CABAC / 11 Ref Frames
Format settings, CABAC      : Yes
Format settings, Reference  : 11 frames
Codec ID                    : V_MPEG4/ISO/AVC
Duration                    : 1 h 17 min
Bit rate                    : 1 148 kb/s
Width                       : 784 pixels
Height                      : 328 pixels
Display aspect ratio        : 2.40:1
Frame rate mode             : Constant
Frame rate                  : 25.000 FPS
Color space                 : YUV
Chroma subsampling          : 4:2:0
Bit depth                   : 8 bits
Scan type                   : Progressive
Bits/(Pixel*Frame)          : 0.179
Stream size                 : 624 MiB (84%)
Title                       : Rip by ivanes
Writing library             : x264 core 158 r2984+49 6932f4a t_mod_New [0-bit@all X86]
Encoding settings           : cabac=1 / ref=11 / deblock=1:-3:-3 / analyse=0x3:0x113 / me=umh / subme=10 / psy=1 / fade_compensate=0.00 / psy_rd=1.00:0.00 / mixed_ref=1 / me_range=32 / chroma_me=1 / trellis=2 / 8x8dct=1 / cqm=0 / deadzone=21,11 / fast_pskip=0 / chroma_qp_offset=-2 / threads=12 / lookahead_threads=2 / sliced_threads=0 / nr=0 / decimate=1 / interlaced=0 / bluray_compat=0 / constrained_intra=0 / fgo=0 / bframes=11 / b_pyramid=2 / b_adapt=2 / b_bias=0 / direct=1 / weightb=1 / open_gop=0 / weightp=2 / keyint=250 / keyint_min=25 / scenecut=40 / intra_refresh=0 / rc_lookahead=60 / rc=2pass / mbtree=0 / bitrate=1148 / ratetol=1.0 / qcomp=0.60 / qpmin=0:0:0 / qpmax=69:69:69 / qpstep=4 / cplxblur=20.0 / qblur=0.5 / vbv_maxrate=50000 / vbv_bufsize=62500 / nal_hrd=none / filler=0 / ip_ratio=1.40 / pb_ratio=1.30 / aq=1:1.00 / aq-sensitivity=10.00 / aq-factor=1.00:1.00:1.00 / aq2=0 / aq3=0
Default                     : Yes
Forced                      : No
Statistics Tags Issue       : mkvmerge v29.0.0 ('Like It Or Not') 64-bit 2019-11-29 20:37:57 / mkvmerge v4.4.0 ('Die Wiederkehr') сборка от Jan  3 2011 21:40:45 2019-11-29 20:39:14
FromStats_BitRate           : 1147166
FromStats_Duration          : 01:17:46.320000000
FromStats_FrameCount        : 116658
FromStats_StreamSize        : 669130620
Audio
ID                          : 2
Format                      : AC-3
Format/Info                 : Audio Coding 3
Commercial name             : Dolby Digital
Codec ID                    : A_AC3
Duration                    : 1 h 17 min
Bit rate mode               : Constant
Bit rate                    : 192 kb/s
Channel(s)                  : 2 channels
Channel layout              : L R
Sampling rate               : 48.0 kHz
Frame rate                  : 31.250 FPS (1536 SPF)
Compression mode            : Lossy
Stream size                 : 107 MiB (14%)
Title                       : iTunes
Language                    : Russian
Service kind                : Complete Main
Default                     : Yes
Forced                      : No

Скриншоты

Если ваш рейтинг упадет ниже 0,3, вы не сможете скачивать торренты! Подробнее о рейтинге.

[www.kaleydoskop-info.ru].t209.torrent 
Торрент: Зарегистрирован [ 2019-11-30 11:42 ] · E66860BB3AF3380854DD2A85C5F4E76B8EF87F01

Скачать .torrent

Скачать

15 KB

Статус: проверено
Скачан: 0 раз
Размер: 746 MB
terms.php
[Профиль] [ЛС]

StanleySeefe

Пол: Мужской

Стаж: 2 месяца 27 дня

Сообщений: 2

Откуда: Malaysia

Создавать темы 09-Сен-2020 18:04 (спустя 9 месяца 9 дня)

[Цитировать]

Hi, I found a great site, all here https://bit.ly/3h2Orn2
[Профиль] [ЛС]
Показать сообщения:    
Ответить на тему

Текущее время: 06-Дек 04:52

Часовой пояс: UTC + 3



Вы не можете начинать темы
Вы не можете отвечать на сообщения
Вы не можете редактировать свои сообщения
Вы не можете удалять свои сообщения
Вы не можете голосовать в опросах
Вы не можете прикреплять файлы к сообщениям
Вы можете скачивать файлы