Куда ты пропала, Бернадетт? / Where'd You Go, Bernadette (Ричард Линклейтер / Richard Linklater) [2019, США, драма, комедия, детектив, BDRip] Dub (iTunes)

Ответить на тему
 
Автор Сообщение

Magnat ®

Пол: Мужской

Стаж: 10 месяца 3 дня

Сообщений: 189

Откуда: Москва

Создавать темы 28-Ноя-2019 21:02

[Цитировать]

Куда ты пропала, Бернадетт? / Where'd You Go, Bernadette
Страна: США
Жанр: драма, комедия, детектив
Год выпуска: 2019
Продолжительность: 01:48:57-Перевод: Профессиональный (дублированный) | iTunes
Субтитры: нет
Оригинальная аудиодорожка: нет-Режиссер:
Ричард Линклейтер / Richard Linklater-В ролях:
Кейт Бланшетт, Джуди Грир, Кристен Уиг, Тройэн Эвери Беллисарио, Билли Крудап, Лоренс Фишбёрн, Стив Зан, Меган Маллалли, Клаудия Дурмит, Йоуханнес Хёйкьюр Йоуханнессон-Описание: У Бернадетт, очаровательной женщины и талантливого архитектора, есть всё: прекрасный дом, замечательная дочь, успешный и любящий муж. Хоть она и выбивается из «безупречной» компании соседских мамаш, никто не мог представить, что в один прекрасный день Бернадетт просто исчезнет без следа. Она отправляется на поиски себя, пытаясь обрести счастье на краю света.
Качество видео: BDRip
Формат видео: AVI
Видео: 704x384 (1.83:1), 23.976 fps, XviD build 73 ~1517 kbps avg, 0.23 bit/pixel
Аудио: 48 kHz, AC3 Dolby Digital, 3/2 (L,C,R,l,r) + LFE ch, ~384 kbps-

MediaInfo

Код:Формат : AVI
Формат/Информация : Audio Video Interleave
Размер файла : 1,45 Гбайт
Продолжительность : 1 ч. 48 м.
Общий поток : 1911 Кбит/сек
Название фильма : Куда ты пропала, Бернадетт_2019_BDRip
Программа кодирования : VirtualDubMod 1.5.10.3 | www.virtualdub-fr.org || (build 2550/release)
Авторское право : порошков
Видео
Идентификатор : 0
Формат : MPEG-4 Visual
Профиль формата : Advanced Simple@L5
Настройки формата : BVOP1 / Custom Matrix
Параметр BVOP формата : 1
Параметр QPel формата : Нет
Параметр GMC формата : Без точки перехода
Параметр матрицы формата : Выборочная
Идентификатор кодека : XVID
Идентификатор кодека/Подсказка : XviD
Продолжительность : 1 ч. 48 м.
Битрейт : 1518 Кбит/сек
Ширина : 704 пикселя
Высота : 384 пикселя
Соотношение сторон : 1,85:1
Частота кадров : 23,976 (24000/1001) кадра/сек
Цветовое пространство : YUV
Субдискретизация насыщенности : 4:2:0
Битовая глубина : 8 бит
Тип развёртки : Прогрессивная
Метод сжатия : С потерями
Бит/(Пиксели*Кадры) : 0.234
Размер потока : 1,16 Гбайт (79%)
Библиотека кодирования : XviD 73
Аудио
Идентификатор : 1
Формат : AC-3
Формат/Информация : Audio Coding 3
Коммерческое название : Dolby Digital
Идентификатор кодека : 2000
Продолжительность : 1 ч. 48 м.
Вид битрейта : Постоянный
Битрейт : 384 Кбит/сек
Каналы : 6 каналов
ChannelLayout : L R C LFE Ls Rs
Частота : 48,0 КГц
Частота кадров : 31,250 кадров/сек (1536 SPF)
Метод сжатия : С потерями
Размер потока : 299 Мбайт (20%)
Выравнивание : Разделение по промежуткам
Продолжительность промежутка : 42 мс. (1,00 видеокадр)
Время предзагрузки промежутка : 500 мс.
ServiceKind/String : Complete Main

Скриншоты


РАЗДАЧА ЗАБЛОКИРОВАНА ПО ТРЕБОВАНИЮ ПРАВООБЛАДАТЕЛЯ!
[Профиль] [ЛС]

Ksuha

Пол: Женский

Стаж: 1 год 9 месяца

Сообщений: 10

Откуда: Ломоносов

Создавать темы 23-Дек-2019 11:08 (спустя 24 дня)

[Цитировать]

Я рыдаю! Было бы что блокировать. Кине - полный АЦТОЙ!
[Профиль] [ЛС]

Lola

Пол: Женский

Стаж: 3 года 9 месяца

Сообщений: 16

Откуда: Колпино

Создавать темы 23-Дек-2019 20:06 (спустя 8 часа)

[Цитировать]

Интересно, кто прокатчик, закупивший это Г***? Здесь два варианта - либо денег, как у дурака фантиков, либо мозгов совсем нет. Покупать такой провальный фильм непонятного жанра - бабки на ветер, не драма, не комедия..., одним словом, семейный фильм ag
[Профиль] [ЛС]

Admin

Пол: Мужской

Стаж: 3 года 9 месяца

Сообщений: 31

Откуда: Ленинград

Создавать темы 23-Дек-2019 23:27 (спустя 3 часа)

[Цитировать]

301Интересно, кто прокатчик, закупивший это Г***? Здесь два варианта - либо денег, как у дурака фантиков, либо мозгов совсем нет. Покупать такой провальный фильм непонятного жанра - бабки на ветер, не драма, не комедия..., одним словом, семейный фильм ag
Какая-то кинопрокатная компания "Вольгафильм". Такой ОР подняли, хостиг-провайдера задолбали своим нытьем. Могли бы в личку написать, проблема была бы решена за пару минут. Еще бы судилище устроили из-за этого "шедевра кинематографии"
[Профиль] [ЛС]

Serzh

Пол: Мужской

Стаж: 3 года 6 месяца

Сообщений: 5

Откуда: Россия, Санкт-Петербург

Создавать темы 24-Дек-2019 02:59 (спустя 3 часа)

[Цитировать]

Ааааа....!!! Знаю я этих истериков-плакальщиков у самого трекер на обслуге, киношку у них подрезали, ой беда!!! Готовы чуть ли не в Гаагский суд обращаться. aq Сами лимонами ворочают, а уставный капитал 11 тыс. деревянных. Вор у вора шапку украл! al
[Профиль] [ЛС]
Показать сообщения:    
Ответить на тему

Текущее время: 28-Сен 22:12

Часовой пояс: UTC + 3



Вы не можете начинать темы
Вы не можете отвечать на сообщения
Вы не можете редактировать свои сообщения
Вы не можете удалять свои сообщения
Вы не можете голосовать в опросах
Вы не можете прикреплять файлы к сообщениям
Вы можете скачивать файлы