Щегол / The Goldfinch (Джон Краули / John Crowley) [2019, США, драма, BDRip-AVC] Dub (iTunes) + Original Eng + Sub Rus, Eng

Ответить на тему
Статистика раздачи
Размер:  1,46 GB   |    Зарегистрирован:  10 месяца   |    Скачан:  0 раза
DL-List: Нет

Полного источника не было: 19 часа

 
     
 
 
 
Автор Сообщение

Magnat ®

Пол: Мужской

Стаж: 10 месяца 2 дня

Сообщений: 189

Откуда: Москва

Создавать темы 28-Ноя-2019 21:01

[Цитировать]

-Щегол / The Goldfinch-«История украденной жизни»- -Страна: США
Жанр: драма
Год выпуска: 2019
Продолжительность: 02:29:26-Перевод: Профессиональный (дублированный) iTunes
Субтитры: русские (форсированные, полные), английские
Оригинальная аудиодорожка: английская-Режиссер: Джон Краули / John Crowley-В ролях: Энсел Элгорт, Николь Кидман, Люк Уилсон, Джеффри Райт, Сара Полсон, Оакс Фигли, Анайрин Барнард, Финн Вулфард, Уилла Фицджералд, Эшли Каммингс-Описание: История юного Теодора Деккера, потерявшего мать во время теракта в Метрополитен-музее. Чудом оставшись в живых после взрыва, Тео получает от умирающего старика редкую картину кисти Карела Фабрициуса и кольцо. С этого момента начинается его погружение в подпольный мир искусства.
Качество видео: BDRip-AVC
Формат видео: MKV-Видео: MPEG-4 AVC, 910x492 (1.85:1), 23.976 fps, ~983 kbps avg, 0.092 bit/pixel
Аудио 1: 48 kHz, AC3 Dolby Digital, 2/0 (L,R) ch, ~192 kbps avg iTunes
Аудио 2: 48 kHz, AC3 Dolby Digital, 2/0 (L,R) ch, ~192 kbps avg Original-

MediaInfo

Код:Complete name : D:\Раздача\Щегол (2019) BDRip-AVC__ivanes.mkv
Format : Matroska
Format version : Version 2
File size : 1.46 GiB
Duration : 2 h 29 min
Overall bit rate : 1 394 kb/s
Movie name : Щегол (2019) BDRip-AVC__ivanes
Encoded date : UTC 2019-11-27 14:16:20
Writing application : mkvmerge v4.4.0 ('Die Wiederkehr') сборка от Jan 3 2011 21:40:45
Writing library : libebml v1.0.0 + libmatroska v1.0.0
Cover : Yes
Attachments : cover.jpg
Video
ID : 1
Format : AVC
Format/Info : Advanced Video Codec
Format profile : High@L4.1
Format settings : CABAC / 12 Ref Frames
Format settings, CABAC : Yes
Format settings, Reference : 12 frames
Codec ID : V_MPEG4/ISO/AVC
Duration : 2 h 29 min
Bit rate : 983 kb/s
Width : 910 pixels
Height : 492 pixels
Display aspect ratio : 1.85:1
Frame rate mode : Constant
Frame rate : 23.976 (24000/1001) FPS
Color space : YUV
Chroma subsampling : 4:2:0
Bit depth : 8 bits
Scan type : Progressive
Bits/(Pixel*Frame) : 0.092
Stream size : 1.03 GiB (70%)
Title : Rip by ivanes
Writing library : x264 core 158 r2984+49 6932f4a t_mod_New [0-bit@all X86]
Encoding settings : cabac=1 / ref=12 / deblock=1:-2:-2 / analyse=0x3:0x113 / me=umh / subme=10 / psy=1 / fade_compensate=0.00 / psy_rd=1.00:0.00 / mixed_ref=1 / me_range=32 / chroma_me=1 / trellis=2 / 8x8dct=1 / cqm=0 / deadzone=21,11 / fast_pskip=0 / chroma_qp_offset=-2 / threads=12 / lookahead_threads=3 / sliced_threads=0 / nr=0 / decimate=1 / interlaced=0 / bluray_compat=0 / constrained_intra=0 / fgo=0 / bframes=14 / b_pyramid=2 / b_adapt=2 / b_bias=0 / direct=1 / weightb=1 / open_gop=0 / weightp=2 / keyint=240 / keyint_min=23 / scenecut=40 / intra_refresh=0 / rc_lookahead=60 / rc=crf / mbtree=0 / crf=18.1000 / qcomp=0.60 / qpmin=0:0:0 / qpmax=69:69:69 / qpstep=4 / vbv_maxrate=50000 / vbv_bufsize=62500 / crf_max=0.0 / nal_hrd=none / filler=0 / ip_ratio=1.40 / pb_ratio=1.30 / aq=1:1.00 / aq-sensitivity=10.00 / aq-factor=1.00:1.00:1.00 / aq2=0 / aq3=0
Default : Yes
Forced : No
Statistics Tags Issue : mkvmerge v29.0.0 ('Like It Or Not') 64-bit 2019-11-27 14:00:43 / mkvmerge v4.4.0 ('Die Wiederkehr') сборка от Jan 3 2011 21:40:45 2019-11-27 14:16:20
FromStats_BitRate : 1008321
FromStats_Duration : 02:29:26.875000000
FromStats_FrameCount : 214990
FromStats_StreamSize : 1130186331
Audio #1
ID : 2
Format : AC-3
Format/Info : Audio Coding 3
Commercial name : Dolby Digital
Codec ID : A_AC3
Duration : 2 h 29 min
Bit rate mode : Constant
Bit rate : 192 kb/s
Channel(s) : 2 channels
Channel layout : L R
Sampling rate : 48.0 kHz
Frame rate : 31.250 FPS (1536 SPF)
Compression mode : Lossy
Stream size : 205 MiB (14%)
Title : iTunes
Language : Russian
Service kind : Complete Main
Default : Yes
Forced : No
Audio #2
ID : 3
Format : AC-3
Format/Info : Audio Coding 3
Commercial name : Dolby Digital
Codec ID : A_AC3
Duration : 2 h 29 min
Bit rate mode : Constant
Bit rate : 192 kb/s
Channel(s) : 2 channels
Channel layout : L R
Sampling rate : 48.0 kHz
Frame rate : 31.250 FPS (1536 SPF)
Compression mode : Lossy
Stream size : 205 MiB (14%)
Title : Original
Language : English
Service kind : Complete Main
Default : No
Forced : No
Text #1
ID : 4
Format : UTF-8
Codec ID : S_TEXT/UTF8
Codec ID/Info : UTF-8 Plain Text
Title : Forced
Language : Russian
Default : Yes
Forced : No
Text #2
ID : 5
Format : UTF-8
Codec ID : S_TEXT/UTF8
Codec ID/Info : UTF-8 Plain Text
Title : Full
Language : Russian
Default : No
Forced : No
Text #3
ID : 6
Format : UTF-8
Codec ID : S_TEXT/UTF8
Codec ID/Info : UTF-8 Plain Text
Title : Full
Language : English
Default : No
Forced : No

Скриншоты

Если ваш рейтинг упадет ниже 0,3, вы не сможете скачивать торренты! Подробнее о рейтинге.

[www.kaleydoskop-info.ru].t206.torrent 
Торрент: Зарегистрирован [ 2019-11-28 21:01 ] · 55E3F2092BD3E7400C78A8345052862119FF1D41

Скачать .torrent

Скачать

15 KB

Статус: проверено
Скачан: 0 раз
Размер: 1,46 GB
terms.php
[Профиль] [ЛС]
Показать сообщения:    
Ответить на тему

Текущее время: 28-Сен 22:01

Часовой пояс: UTC + 3



Вы не можете начинать темы
Вы не можете отвечать на сообщения
Вы не можете редактировать свои сообщения
Вы не можете удалять свои сообщения
Вы не можете голосовать в опросах
Вы не можете прикреплять файлы к сообщениям
Вы можете скачивать файлы