Добыча / Prey (Франк Халфун / Franck Khalfoun) [2019, США, ужасы, приключения, триллер, WEB-DLRip] Dub (iTunes)

Ответить на тему
Статистика раздачи
Размер:  745 MB   |    Зарегистрирован:  8 месяца 7 дня   |    Скачан:  0 раза
DL-List: Нет

Полного источника не было: Никогда

 
     
 
 
 
Автор Сообщение

Magnat ®

Пол: Мужской

Стаж: 8 месяца 10 дня

Сообщений: 189

Откуда: Москва

Создавать темы 28-Ноя-2019 20:59

[Цитировать]

Добыча / Prey
Страна: США
Жанр: ужасы, приключения, триллер
Год выпуска: 2019
Продолжительность: 01:25:06
Перевод: Профессиональный (дублированный) iTunes
Субтитры: нет
Режиссер: Франк Халфун / Franck Khalfoun
В ролях: Логан Миллер, Джолин Андерсон, Вела Клафф, Фодисо Динтве, Кристин Фросет, Нэйтан Хили, Энтони Дженсен, Джеррика Лай, Джоди Мортара
Описание: Когда взбалмошный старшеклассник Тоби начал вытворять в школе неподобающие вещи и крайне непристойно выражаться, руководство учреждения решило использовать специально созданную воспитательную программу. Трудного подростка отправляют на три дня перевоспитываться на безлюдный заброшенный остров. Оказавшись в странном месте, где царит гнетущая тишина, постепенно герой понимает, что он здесь не единственная живая душа. На проверку местность оказывается не такой уж и пустынной – герой встречает другого товарища по несчастью, а также выросшую на острове девушку и её крайне опасную мать. Теперь Тоби предстоит научиться быть невидимкой и производить как можно меньше шума, иначе его ждет неминуемая гибель...
Качество видео: WEB-DLRip
Формат видео: AVI
Видео: XviD 73, 672x288, (2,35:1), 23,976 fps, 1022 Кбит/с, 8 бит, 0.22 bit/pixel
Аудио: Русский (АС3, 2 ch (Front: L R), 48,0 KHz, 192 Kbps)

MediaInfo

Общее
Полное имя : E:\Добыча (ужасы, приключения, триллер 2019 год).avi
Формат : AVI
Формат/Информация : Audio Video Interleave
Размер файла : 745 Мбайт
Продолжительность : 1 ч. 25 м.
Общий поток : 1223 Кбит/сек
Программа кодирования : VirtualDubMod 1.5.10.3 | www.virtualdub-fr.org || (build 2550/release)
Библиотека кодирования : VirtualDubMod build 2550/release
Видео
Идентификатор : 0
Формат : MPEG-4 Visual
Профиль формата : Advanced Simple@L5
Параметр BVOP формата : 2
Параметр QPel формата : Нет
Параметр GMC формата : Без точки перехода
Параметр матрицы формата : Выборочная
Идентификатор кодека : XVID
Идентификатор кодека/Подсказка : XviD
Продолжительность : 1 ч. 25 м.
Битрейт : 1022 Кбит/сек
Ширина : 672 пикселя
Высота : 288 пикселей
Соотношение сторон : 2,35:1
Частота кадров : 23,976 (23976/1000) кадра/сек
Цветовое пространство : YUV
Субдискретизация насыщенности : 4:2:0
Битовая глубина : 8 бит
Тип развёртки : Прогрессивная
Метод сжатия : С потерями
Бит/(Пиксели*Кадры) : 0.220
Размер потока : 622 Мбайт (84%)
Библиотека кодирования : XviD 73
Аудио
Идентификатор : 1
Формат : AC-3
Формат/Информация : Audio Coding 3
Расширение режима : CM (complete main)
Параметр Endianness формата : Big
Идентификатор кодека : 2000
Продолжительность : 1 ч. 25 м.
Вид битрейта : Постоянный
Битрейт : 192 Кбит/сек
Каналы : 2 канала
Расположение каналов : Front: L R
Частота : 48,0 КГц
Частота кадров : 31,250 кадров/сек (1536 spf)
Метод сжатия : С потерями
Размер потока : 117 Мбайт (16%)
Выравнивание : Разделение по промежуткам
Продолжительность промежутка : 42 мс. (1,00 видеокадр)
Время предзагрузки промежутка : 500 мс.

Скриншот c названием фильма

Скриншоты

Если ваш рейтинг упадет ниже 0,3, вы не сможете скачивать торренты! Подробнее о рейтинге.

[www.kaleydoskop-info.ru].t205.torrent 
Торрент: Зарегистрирован [ 2019-11-28 20:59 ] · 446603AA1CD591B2DA65606E46276353EB6DA865

Скачать .torrent

Скачать

15 KB

Статус: проверено
Скачан: 0 раз
Размер: 745 MB
terms.php
[Профиль] [ЛС]
Показать сообщения:    
Ответить на тему

Текущее время: 06-Авг 13:30

Часовой пояс: UTC + 3



Вы не можете начинать темы
Вы не можете отвечать на сообщения
Вы не можете редактировать свои сообщения
Вы не можете удалять свои сообщения
Вы не можете голосовать в опросах
Вы не можете прикреплять файлы к сообщениям
Вы можете скачивать файлы