Победитель / Overcomer (Алекс Кендрик / Alex Kendrick) [2019, США, драма, спорт, WEB-DLRip] MVO (iTunes) + Sub (Rus, Eng) + Original Eng

Ответить на тему
Статистика раздачи
Размер:  2,18 GB   |    Зарегистрирован:  10 месяца 1 день   |    Скачан:  0 раза
DL-List: Нет

Полного источника не было: Никогда

 
     
 
 
 
Автор Сообщение

Magnat ®

Пол: Мужской

Стаж: 10 месяца 4 дня

Сообщений: 189

Откуда: Москва

Создавать темы 28-Ноя-2019 20:52

[Цитировать]

Победитель / Overcomer
Страна: США
Жанр: драма, спорт
Год выпуска: 2019
Продолжительность: 01:59:02-Перевод: Профессиональный (многоголосый закадровый) | iTunes
Субтитры: русские, английские
Оригинальная аудиодорожка: английский-Режиссер: Алекс Кендрик / Alex Kendrick-В ролях: Алекс Кендрик, Шари Вьедманн, Aryn Wright-Thompson, Камерон Арнетт, Присцилла Эванс Ширер, Бен Дейвис, Элизабет Бечка, Denise Armstrong, Jack Sterner, Холли Моррис-Описание: Жизнь тренера Джона Харрисона резко меняется, когда его школьная баскетбольная команда и мечты о чемпионате штата неожиданно накрываются медным тазом. Самый большой завод города внезапно закрывается, сотни семей выезжают, и Джон должен преодолеть проблемы своей семьи и команды. Директор школы просит Джона заменить тренера в спорте, который он не знает и не любит, Джон расстроен и сомневается, что чего-то стоит... но вдруг он знакомится с ученицей, которая тоже пытается решить свои проблемы. Этот вдохновляющий фильм для семейного просмотра наполняет надеждой, вдохновляет мечты и задает вопрос: каким обстоятельствам вы позволяете влиять на вашу жизнь?
Качество видео: WEB-DLRip
Формат видео: AVI
Видео: 704x288 (2.44:1), 23.976 fps, XviD build 73 ~1843 kbps avg, 0.38 bit/pixel
Аудио: 48 kHz, AC3 Dolby Digital, 3/2 (L,C,R,l,r) + LFE ch, ~384 kbps | RUS
Аудио: 48 kHz, AC3 Dolby Digital, 3/2 (L,C,R,l,r) + LFE ch, ~384 kbps | ENG-

MediaInfo

Код:Формат : AVI
Формат/Информация : Audio Video Interleave
Профиль формата : OpenDML
Размер файла : 2,18 Гбайт
Продолжительность : 1 ч. 59 м.
Общий поток : 2618 Кбит/сек
Название фильма : Победитель_2019_WEB-DLRip
Программа кодирования : VirtualDubMod 1.5.10.3 | www.virtualdub-fr.org || (build 2550/release)
Авторское право : порошков
Видео
Идентификатор : 0
Формат : MPEG-4 Visual
Профиль формата : Advanced Simple@L5
Настройки формата : BVOP1 / Custom Matrix
Параметр BVOP формата : 1
Параметр QPel формата : Нет
Параметр GMC формата : Без точки перехода
Параметр матрицы формата : Выборочная
Идентификатор кодека : XVID
Идентификатор кодека/Подсказка : XviD
Продолжительность : 1 ч. 59 м.
Битрейт : 1832 Кбит/сек
Ширина : 704 пикселя
Высота : 288 пикселей
Соотношение сторон : 2,40:1
Частота кадров : 23,976 (24000/1001) кадра/сек
Цветовое пространство : YUV
Субдискретизация насыщенности : 4:2:0
Битовая глубина : 8 бит
Тип развёртки : Прогрессивная
Метод сжатия : С потерями
Бит/(Пиксели*Кадры) : 0.377
Размер потока : 1,52 Гбайт (70%)
Библиотека кодирования : XviD 73
Аудио #1
Идентификатор : 1
Формат : AC-3
Формат/Информация : Audio Coding 3
Коммерческое название : Dolby Digital
Идентификатор кодека : 2000
Продолжительность : 1 ч. 59 м.
Вид битрейта : Постоянный
Битрейт : 384 Кбит/сек
Каналы : 6 каналов
ChannelLayout : L R C LFE Ls Rs
Частота : 48,0 КГц
Частота кадров : 31,250 кадров/сек (1536 SPF)
Метод сжатия : С потерями
Размер потока : 327 Мбайт (15%)
Выравнивание : Разделение по промежуткам
Продолжительность промежутка : 42 мс. (1,00 видеокадр)
Время предзагрузки промежутка : 500 мс.
Заголовок : rus
ServiceKind/String : Complete Main
Аудио #2
Идентификатор : 2
Формат : AC-3
Формат/Информация : Audio Coding 3
Коммерческое название : Dolby Digital
Идентификатор кодека : 2000
Продолжительность : 1 ч. 59 м.
Вид битрейта : Постоянный
Битрейт : 384 Кбит/сек
Каналы : 6 каналов
ChannelLayout : L R C LFE Ls Rs
Частота : 48,0 КГц
Частота кадров : 31,250 кадров/сек (1536 SPF)
Метод сжатия : С потерями
Размер потока : 327 Мбайт (15%)
Выравнивание : Разделение по промежуткам
Продолжительность промежутка : 42 мс. (1,00 видеокадр)
Время предзагрузки промежутка : 500 мс.
Заголовок : eng
ServiceKind/String : Complete Main

Скриншоты


Если ваш рейтинг упадет ниже 0,3, вы не сможете скачивать торренты! Подробнее о рейтинге.

[www.kaleydoskop-info.ru].t199.torrent 
Торрент: Зарегистрирован [ 2019-11-28 20:52 ] · C0B22A31EF06F68670E8D73FFF6573C25BAF8A3E

Скачать .torrent

Скачать

11 KB

Статус: проверено
Скачан: 0 раз
Размер: 2,18 GB
terms.php
[Профиль] [ЛС]
Показать сообщения:    
Ответить на тему

Текущее время: 29-Сен 23:47

Часовой пояс: UTC + 3



Вы не можете начинать темы
Вы не можете отвечать на сообщения
Вы не можете редактировать свои сообщения
Вы не можете удалять свои сообщения
Вы не можете голосовать в опросах
Вы не можете прикреплять файлы к сообщениям
Вы можете скачивать файлы