Ирландец / The Irishman (Мартин Скорсезе / Martin Scorsese) [2019, США, драма, криминал, биография, WEB-DLRip-AVC] Dub (Пифагор)

Ответить на тему
Статистика раздачи
Размер:  1,58 GB   |    Зарегистрирован:  10 месяца 22 дня   |    Скачан:  0 раза
DL-List: Нет

Полного источника не было: Никогда

 
     
 
 
 
Автор Сообщение

Magnat ®

Пол: Мужской

Стаж: 10 месяца 25 дня

Сообщений: 189

Откуда: Москва

Создавать темы 28-Ноя-2019 21:03

[Цитировать]

-Ирландец / The Irishman-«His story changed history»- -Страна: США
Жанр: драма, криминал, биография
Год выпуска: 2019
Продолжительность: 03:29:26-Перевод: Профессиональный (дублированный) Пифагор
Субтитры: русские (форсированные)
Оригинальная аудиодорожка: нет-Режиссер: Мартин Скорсезе / Martin Scorsese-В ролях: Роберт Де Ниро, Аль Пачино, Джо Пеши, Рэй Романо, Бобби Каннавале, Анна Пэкуин, Стивен Грэм, Харви Кейтель, Стефани Курцуба, Кэтрин Нардуччи, Уэлкер Уайт, Джесси Племонс-Описание: История о Фрэнке Ширэне по прозвищу Ирландец, которому приписывают убийство 25 гангстеров, включая самого Джимми Хоффу.
Качество видео: WEB-DLRip-AVC
Формат видео: MKV-Видео: MPEG-4 AVC, 740x400 (1.85:1), 24.000 fps, ~866 kbps avg, 0.122 bit/pixel
Аудио: 48 kHz, AC3 Dolby Digital, 2/0 (L,R) ch, ~192 kbps avg-

MediaInfo

Код:Complete name : D:\Раздача\Ирландец (2019) WEB-DLRip-AVC_ivanes.mkv
Format : Matroska
Format version : Version 2
File size : 1.58 GiB
Duration : 3 h 29 min
Overall bit rate : 1 079 kb/s
Movie name : Ирландец (2019) WEB-DLRip-AVC_ivanes
Encoded date : UTC 2019-11-27 16:25:32
Writing application : mkvmerge v4.4.0 ('Die Wiederkehr') сборка от Jan 3 2011 21:40:45
Writing library : libebml v1.0.0 + libmatroska v1.0.0
Cover : Yes
Attachments : cover.jpg
Video
ID : 1
Format : AVC
Format/Info : Advanced Video Codec
Format profile : High@L4.1
Format settings : CABAC / 11 Ref Frames
Format settings, CABAC : Yes
Format settings, Reference : 11 frames
Codec ID : V_MPEG4/ISO/AVC
Duration : 3 h 29 min
Bit rate : 866 kb/s
Width : 740 pixels
Height : 400 pixels
Display aspect ratio : 1.85:1
Frame rate mode : Constant
Frame rate : 24.000 FPS
Color space : YUV
Chroma subsampling : 4:2:0
Bit depth : 8 bits
Scan type : Progressive
Bits/(Pixel*Frame) : 0.122
Stream size : 1.27 GiB (80%)
Title : Rip by ivanes
Writing library : x264 core 158 r2984+49 6932f4a t_mod_New [0-bit@all X86]
Encoding settings : cabac=1 / ref=11 / deblock=1:-3:-2 / analyse=0x3:0x113 / me=umh / subme=10 / psy=1 / fade_compensate=0.00 / psy_rd=1.00:0.00 / mixed_ref=1 / me_range=32 / chroma_me=1 / trellis=2 / 8x8dct=1 / cqm=0 / deadzone=21,11 / fast_pskip=0 / chroma_qp_offset=-2 / threads=12 / lookahead_threads=3 / sliced_threads=0 / nr=0 / decimate=1 / interlaced=0 / bluray_compat=0 / constrained_intra=0 / fgo=0 / bframes=12 / b_pyramid=2 / b_adapt=2 / b_bias=0 / direct=1 / weightb=1 / open_gop=0 / weightp=2 / keyint=240 / keyint_min=24 / scenecut=40 / intra_refresh=0 / rc_lookahead=60 / rc=crf / mbtree=0 / crf=18.3000 / qcomp=0.60 / qpmin=0:0:0 / qpmax=69:69:69 / qpstep=4 / vbv_maxrate=50000 / vbv_bufsize=62500 / crf_max=0.0 / nal_hrd=none / filler=0 / ip_ratio=1.40 / pb_ratio=1.30 / aq=1:1.00 / aq-sensitivity=10.00 / aq-factor=1.00:1.00:1.00 / aq2=0 / aq3=0
Default : Yes
Forced : No
Statistics Tags Issue : mkvmerge v29.0.0 ('Like It Or Not') 64-bit 2019-11-27 16:15:26 / mkvmerge v4.4.0 ('Die Wiederkehr') сборка от Jan 3 2011 21:40:45 2019-11-27 16:25:32
FromStats_BitRate : 885428
FromStats_Duration : 03:29:26.583000000
FromStats_FrameCount : 301598
FromStats_StreamSize : 1390851935
Audio
ID : 2
Format : AC-3
Format/Info : Audio Coding 3
Commercial name : Dolby Digital
Codec ID : A_AC3
Duration : 3 h 29 min
Bit rate mode : Constant
Bit rate : 192 kb/s
Channel(s) : 2 channels
Channel layout : L R
Sampling rate : 48.0 kHz
Frame rate : 31.250 FPS (1536 SPF)
Compression mode : Lossy
Stream size : 288 MiB (18%)
Title : Пифагор
Language : Russian
Service kind : Complete Main
Default : Yes
Forced : No
Text
ID : 3
Format : UTF-8
Codec ID : S_TEXT/UTF8
Codec ID/Info : UTF-8 Plain Text
Title : Forced
Language : Russian
Default : Yes
Forced : No

Скриншоты

Если ваш рейтинг упадет ниже 0,3, вы не сможете скачивать торренты! Подробнее о рейтинге.

[www.kaleydoskop-info.ru].t208.torrent 
Торрент: Зарегистрирован [ 2019-11-28 21:03 ] · 497008A5748BAF11A89328F1659C4D9F9101E9AE

Скачать .torrent

Скачать

16 KB

Статус: проверено
Скачан: 0 раз
Размер: 1,58 GB
terms.php
[Профиль] [ЛС]
Показать сообщения:    
Ответить на тему

Текущее время: 21-Окт 19:27

Часовой пояс: UTC + 3



Вы не можете начинать темы
Вы не можете отвечать на сообщения
Вы не можете редактировать свои сообщения
Вы не можете удалять свои сообщения
Вы не можете голосовать в опросах
Вы не можете прикреплять файлы к сообщениям
Вы можете скачивать файлы