Темный полдень / The Passion of Darkly Noon DVD-5 (1995)

Ответить на тему
Статистика раздачи
Размер:  4,33 GB   |    Зарегистрирован:  7 месяца 6 дня   |    Скачан:  0 раза
DL-List: Нет

Полного источника не было: 3 дня

 
     
 
 
 
Автор Сообщение

Admin ®

Пол: Мужской

Стаж: 2 года 8 месяца

Сообщений: 27

Откуда: Ленинград

Создавать темы 18-Янв-2019 21:44

[Цитировать]

Темный полдень / The Passion of Darkly Noon DVD-5 (1995)

Страны: Великобритания, Германия, Бельгия
Жанр: Детектив, Драма, Триллер
Продолжительность: 01:36:27
Премьера: 19 мая1995
Режиссер: Филип Ридли
В ролях:Брендан Фрейзер, Эшли Джадд, Вигго Мортенсен, Лорен Дин, Грэйс Забриски, Лу Майерс
Описание:
Обнаружив на опушке леса лежащего без сознания юношу, водитель грузовика Джуд привез его в дом своих друзей Калли и Клэя. Придя в себя, молодой человек, назвавшийся Даркли Нуном, рассказал, что его родители погибли, а он остался единственным избежавшим смерти последователем религиозного культа. Поправляясь и восстанавливая силы, Даркли начинает испытывать сильное влечение к Калли. Это ощущение совершенно непривычно для него, ведь Даркли учили, что сексуальное желание является страшным грехом. А то, что Калли любит не его, а Клэя, делает его страдания еще более мучительными. Сгорая от безответной страсти, Даркли начинает склоняться к мысли, что в Калли вселился дьявол.
Media-Info
Общее
Формат: MPEG-PS
Размер файла: 30,8 Мбайт
Продолжительность: 1 м. 16 с.
Режим общего битрейта: Переменный
Общий поток: 3397 Кбит/сек
Видео
Идентификатор: 224 (0xE0)
Формат: MPEG Video
Версия формата: Version 2
Профиль формата: Main@Main
Настройки формата: CustomMatrix / BVOP
Параметр BVOP формата: Да
Параметр матрицы формата: Выборочная
Параметр GOP формата: Variable
Структура изображения: Frame
Продолжительность: 1 м. 16 с.
Вид битрейта: Переменный
Битрейт: 2946 Кбит/сек
Максимальный битрейт: 8500 Кбит/сек
Ширина: 720 пикселей
Высота: 576 пикселей
Соотношение сторон: 4:3
Частота кадров: 25,000 кадров/сек
Стандарт вещания: PAL
Цветовое пространство: YUV
Субдискретизация насыщенности: 4:2:0
Битовая глубина: 8 бит
Тип развёртки: Чересстрочная
Порядок развёртки: Верхнее поле первое
Метод сжатия: С потерями
Бит/(Пиксели*Кадры): 0.284
Временной код первого кадра: 01:00:00:00
Оригинал временного кода: Group of pictures header
GOP, открыто/закрыто: Открыто
GOP, открыто/закрыто на первом кадре: Закрыто
Размер потока: 26,7 Мбайт (87%)
Аудио #1
Идентификатор: 189 (0xBD)-128 (0x80)
Формат: AC-3
Формат/Информация: Audio Coding 3
Коммерческое название: Dolby Digital
Режим смешивания: DVD-Video
Продолжительность: 1 м. 15 с.
Вид битрейта: Постоянный
Битрейт: 192 Кбит/сек
Каналы: 2 канала
Channel layout: L R
Частота: 48,0 КГц
Частота кадров: 31,250 кадров/сек (1536 SPF)
Битовая глубина: 16 бит
Метод сжатия: С потерями
Размер потока: 1,74 Мбайт (6%)
ServiceKind/String: Complete Main
Аудио #2
Идентификатор: 189 (0xBD)-129 (0x81)
Формат: AC-3
Формат/Информация: Audio Coding 3
Коммерческое название: Dolby Digital
Режим смешивания: DVD-Video
Продолжительность: 1 м. 15 с.
Вид битрейта: Постоянный
Битрейт: 192 Кбит/сек
Каналы: 2 канала
Channel layout: L R
Частота: 48,0 КГц
Частота кадров: 31,250 кадров/сек (1536 SPF)
Битовая глубина: 16 бит
Метод сжатия: С потерями
Размер потока: 1,74 Мбайт (6%)
ServiceKind/String: Complete Main
Текст
Идентификатор: 189 (0xBD)-32 (0x20)
Формат: RLE
Формат/Информация: Run-length encoding
Режим смешивания: DVD-Video
Задержка видео: 480 мс.
Скриншоты:
Трейлер:

Если ваш рейтинг упадет ниже 0,3, вы не сможете скачивать торренты! Подробнее о рейтинге.

[www.kaleydoskop-info.ru].t62.torrent 
Торрент: Зарегистрирован [ 2019-01-18 22:00 ] · 9AA9D974A44B504167402C6230F9EC6206C259B8

Скачать .torrent

Скачать

14 KB

Статус: проверено
Скачан: 0 раз
Размер: 4,33 GB
terms.php
[Профиль] [ЛС]
Показать сообщения:    
Ответить на тему

Текущее время: 25-Авг 15:44

Часовой пояс: UTC + 3



Вы не можете начинать темы
Вы не можете отвечать на сообщения
Вы не можете редактировать свои сообщения
Вы не можете удалять свои сообщения
Вы не можете голосовать в опросах
Вы не можете прикреплять файлы к сообщениям
Вы можете скачивать файлы