Джулия - Школа любви / Julia / Der Liebesschuler (1974) DVD-9 (18+)

Ответить на тему
Статистика раздачи
Размер:  5 GB   |    Зарегистрирован:  7 месяца 9 дня   |    Скачан:  0 раза
DL-List: Нет

Полного источника не было: 3 дня

 
     
 
 
 
Автор Сообщение

Admin ®

Пол: Мужской

Стаж: 2 года 8 месяца

Сообщений: 27

Откуда: Ленинград

Создавать темы 16-Янв-2019 09:50

[Цитировать]

Джулия - Школа любви / Julia / Der Liebesschuler (1974) DVD-9 (18+)

Оригинальное название: Es war nicht die Nachtigall
Производство: Германия (ФРГ)
Жанр: Драма
Мировая премьера: 13 сентября 1974
Ограничение по возрасту: 18+
Продолжительность: 88 мин. / 01:28
Режиссер: Зиги Ротемунд
В ролях: Жан-Клод Буллон, Сильвия Кристель, Тери Тордаи, Гизела Хан, Петер Берлинг, Роза Рене Рот, Доминик Дельпьерр, Кристин Гласнер, Михаэль Тиц, Манфред Шпис, Алоис Миттермайер, Эккехардт Белле
Описание фильма
Молодая студентка Джулия во время отдыха в Швейцарских Альпах встречает такого же молодого юношу Патрика. В порывах страстей, они поддаются взаимному увлечению, которое перерастает в нечто большее. Все попытки остановить их оказываются безрезультатными, любви нельзя помешать.
Media Info
Общее
Контейнер: .VOB
Формат: MPEG-PS
Размер файла: 7,26 Мбайт
Продолжительность: 17 с. 0 мс.
Режим общего битрейта: Переменный
Общий пото: 3584 Кбит/сек
Видео
Идентификатор: 224 (0xE0)
Формат: MPEG Video
Версия формата: Version 2
Профиль формата: Main@Main
Настройки формата: CustomMatrix / BVOP
Параметр BVOP формата: Да
Параметр матрицы формата: Выборочная
Параметр GOP формата: M=3, N=15
Структура изображения: Frame
Продолжительность: 17 с. 0 мс.
Вид битрейта: Переменный
Битрейт: 3193 Кбит/сек
Максимальный битрейт: 6800 Кбит/сек
Ширина: 720 пикселей
Высота: 576 пикселей
Соотношение сторон: 4:3
Частота кадров: 25,000 кадров/сек
Стандарт вещания: PAL
Цветовое пространство: YUV
Субдискретизация насыщенности: 4:2:0
Битовая глубина: 8 бит
Тип развёртки: Чересстрочная
Порядок развёртки: Верхнее поле первое
Метод сжатия: С потерями
Бит/(Пиксели*Кадры): 0.308
Временной код первого кадра: 00:00:00:00
Оригинал временного кода: Group of pictures header
GOP, открыто/закрыто: Закрыто
Размер потока: 6,47 Мбайт (89%)
Основные цвета: BT.601 PAL
Характеристики трансфера: BT.470 System B/G
Коэффициенты матрицы: BT.601
Аудио
Идентификатор: 189 (0xBD)-128 (0x80)
Формат: AC-3
Формат/Информация: Audio Coding 3
Коммерческое название: Dolby Digital
Режим смешивания: DVD-Video
Продолжительность: 11 с. 200 мс.
Вид битрейта: Постоянный
Битрейт: 320 Кбит/сек
Каналы: 2 канала
Channel layout: L R
Частота: 48,0 КГц
Частота кадров: 31,250 кадров/сек (1536 SPF)
Битовая глубина: 16 бит
Метод сжатия: С потерями
Размер потока: 438 Кбайт (6%)
ServiceKind/String: Complete Main
Скриншоты:
Отрывок из фильма:

Если ваш рейтинг упадет ниже 0,3, вы не сможете скачивать торренты! Подробнее о рейтинге.

[www.kaleydoskop-info.ru].t60.torrent 
Торрент: Зарегистрирован [ 2019-01-16 10:06 ] · C1DF986C6FF2E368938C29FD11CEBCF2566AB50E

Скачать .torrent

Скачать

16 KB

Статус: проверено
Скачан: 0 раз
Размер: 5 GB
terms.php
[Профиль] [ЛС]
Показать сообщения:    
Ответить на тему

Текущее время: 25-Авг 15:48

Часовой пояс: UTC + 3



Вы не можете начинать темы
Вы не можете отвечать на сообщения
Вы не можете редактировать свои сообщения
Вы не можете удалять свои сообщения
Вы не можете голосовать в опросах
Вы не можете прикреплять файлы к сообщениям
Вы можете скачивать файлы